News Banner

bags meets wes Repair

Just fill in the form below, click submit, you will get the price list, and we will contact you within one working day. Please also feel free to contact us via email or phone. (* is required).

  • 'Bags Meets Wes!' by Milt Jackson & Wes

    ‘Bags Meets Wes!’ by Milt Jackson & Wes Montgomery is a collaboration album recorded in December, 1961 and released in 1962 By Riverside. LISTEN Track Listing : 1.S.K.J. ( Milt Jackson ) – 05:17 . 2.Stablemates ( Benny Golson ) – 05:45 . 3.Stairway To The Stars (Matty Malneck, Mitchell Parish, Frank Signorelli) – 03:38 . 4.Blue Roz ...

    Get Price
  • Bags Meets Wes! - Milt Jackson, Wes Montgomery |

    24 行 · Label/Catalog. Format. 1986. Bags Meets Wes! Fantasy Original Jazz Classics. OJC20 2342. …

    Get Price
  • Bags Meets Wes! by Milt Jackson and Wes

    Bags Meets Wes!的话题 · · · · · · ( 全部 条) 什么是话题 无论是一部作品、一个人,还是一件事,都往往可以衍生出许多不同的话题。将这些话题细分出来,分别进行讨论,会有更多收获 ...

    Get Price
  • Bags Meets Wes! by Wes Montgomery/Milt Jackson |

    2020-4-22 · Bags Meets Wes!, an Album by Milt Jackson and Wes Montgomery. Released in 1962 on Riverside (catalog no. RLP 407; Vinyl LP). Genres: Hard Bop, Cool Jazz. Featured peformers: Milt Jackson (vibraphone), Wes Montgomery (guitar), Wynton Kelly (piano), Sam Jones (bass), Philly Joe Jones (drums), Orrin Keepnews (producer), Ray Fowler (recording engineer), Neal Ceppos …

    Get Price
  • Milt Jackson and Wes Montgomery - Bags Meets Wes ...

    Buy Bags Meets Wes! by Wes Montgomery/Milt Jackson online at Alibris. We have new and used copies available on CD - starting at 4.99. Shop now.

    Get Price
  • Milt Jackson and Wes Montgomery - Bags meets

    Filename D:\_EACMilt Jackson and Wes Montgomery - Bags meets Wes! (1961) [FLAC] {2008 Riverside}5 - Sam Sack.wav Peak level 70.5 % Extraction speed 1.6 X Track quality 100.0 % Test CRC 81CB3853 Copy CRC 81CB3853 Accurately ripped (confidence 24) [02CADE81] (AR v2) Copy OK Track 6 Filename D:\_EACMilt Jackson and Wes Montgomery - Bags meets Wes!

    Get Price
  • Milt Jackson/Wes Montgomery - Bags meets Wes!

    Milt Jackson/Wes Montgomery Bags meets Wes! for sale. Milt Jackson/Wes Montgomery Bags meets Wes! JVC Super Vinyl import. Riverside SMJ-6058. Original Recording Series from the 70's.Includes the insert.Cover rated 7 due to light wear (see Pic)/LP is 9...

    Get Price
  • Milt Jackson And Wes Montgomery – Bags Meets Wes ...

    2000-3-23 · Discogs: 2000 CD, Bags Meets Wes!. リリースのクレジット、レビュー、トラックを確認し、購入。

    Get Price
  • WES Enterprises L.P. | Flexible & Rigid Endoscope

    WES Enterprises L.P. is your one source for all Used Endoscopy Equipment, Endoscope Equipment Repair and Endoscopy Resources. WES offers Endoscopy Equipment and Surgery Instruments Repairs as well as Certified Pre-owned Medical Equipment. Welcome. Thank you for stopping by. Please explore further to learn more about WES. ...

    Get Price
  • ‎Bags Meets Wes (Remastered) by Milt Jackson & Wes ...

    Bags Meets Wes (Remastered) Milt Jackson, Wes Montgomery. Jazz · 1961 Preview SONG TIME S.K.J. Milt Jackson, Wes Montgomery. 1. 5:13 PREVIEW Stablemates. Milt Jackson, Wes Montgomery. 2. 5:43 PREVIEW Stairway to the Stars ...

    Get Price
  • 'Bags Meets Wes!' by Milt Jackson & Wes

    ‘Bags Meets Wes!’ by Milt Jackson & Wes Montgomery is a collaboration album recorded in December, 1961 and released in 1962 By Riverside. LISTEN Track Listing : 1.S.K.J. ( Milt Jackson ) – 05:17 . 2.Stablemates ( Benny Golson ) – 05:45 . 3.Stairway To The Stars (Matty Malneck, Mitchell Parish, Frank Signorelli) – 03:38 . 4.Blue Roz ...

    Get Price
  • Bags Meets Wes! - Milt Jackson, Wes Montgomery |

    Label/Catalog. Format. 1986. Bags Meets Wes! Fantasy Original Jazz Classics. OJC20 2342. CD. 1987. Bags Meets Wes!

    Get Price
  • Milt Jackson & Wes Montgomery - Bags Meets Wes!

    Filename X:EACMilt Jackson and Wes Montgomery - Bags Meets Wes! (1961 Riverside 2004) [FLAC]2. Stablemates.wav Pre-gap length 0:00:01.52 Peak level 82.6 % Extraction speed 1.8 X Track quality 99.9 % Test CRC 1D8D533C Copy CRC 1D8D533C Cannot be verified as accurate (confidence 3) [BBB65058], AccurateRip returned [AC077F11] (AR v2) Copy OK ...

    Get Price
  • Milt Jackson/Bags Meets Wes! - タワーレコード オンラ

    Bags Meets Wes! Jazz LP レコード Bags Meets Wes! Milt Jackson 、 Wes Montgomery 5.0 カスタマーズボイスを見る お取り寄せの商品となり ...

    Get Price
  • Estimate | Wescraft Repair

    Description of Repair. Currently we are only accepting request from Washington State. This is for a rough estimate and can change upon physical inspection. When taking photos of repair area please take one at ~10' and one at ~5' of each specific area. Please allow ~5 business days to receive estimate. Add Photo.

    Get Price
  • Warranty — Wes Ward Auto Repair

    Wes Ward Basic and Extended Warranty. The Independent Repair Facility warrants that the repairs and services performed at our location will be free from defects in materials and workmanship for 24 months or 24,000 miles of use, whichever comes first.

    Get Price
  • SearchResults.Repair – We Change Your Image

    2021-7-9 · At SearchResults.repair our mission is to improve your online reputation. Whether it's hiding negative press, overcoming bad reviews for your business, or making your criminal history difficult to find, we are up for the task. We've helped many people change their image and overcome their past. Our life's work is helping people redefine themselves.

    Get Price
  • WES COE APPLIANCE REPAIR - Appliances & Repair -

    2 reviews of Wes Coe Appliance Repair 'We had the distinct pleasure of meeting Wes and Josh when we needed a reliable washer and dryer. Wes did the delivery and installation. He is personable, professional, and obviously skilled. I appreciate a person who takes pride in their work, double checks everything, and then tests it. We strongly recommend Wes based on our experience with him.'

    Get Price
  • WES’S WAGON - Auto Repair - 2100 W Sussex Ave,

    Specialties: Bring your import car to Wes's Wagons LLC in Missoula, MT for auto repair & maintenance! We specialize in Subaru, Audi & Volkswagen auto service. Established in 2017. 14 Years dealership experience with VW. VW master certified. 9 Years Experience at Subaru dealerships, Subaru factory training. Left the dealership to start a small family business. Experienced in most import ...

    Get Price
  • Jackson, Milt, Montgomery, Wes - Bags Meets Wes -

    Bags Meets Wes. Wes Montgomery Milt Jackson Format: Audio CD. 4.9 out of 5 stars 53 ratings. See all 42 formats and editions. Hide other formats and editions. Listen Now with Amazon Music. Bags Meets Wes [Keepnews Collection] 'Please retry'. Amazon Music Unlimited.

    Get Price
  • ‎Keepnews Collection: Bags Meets Wes by Milt Jackson

    In late 1961, two jazz giants, vibraphonist Milt Jackson and guitarist Wes Montgomery, got together to record Bags Meets Wes! The already well-known Jackson had been a member of the Modern Jazz Quartet for several years, while Montgomery had only recently entered the spotlight with his 1960 release The Incredible Jazz Guitar of Wes Montgomery.But they shared a love of the blues and the pairing ...

    Get Price
  • Jackson, Milt, Montgomery, Wes - Bags Meets Wes -

    Buy the selected items together. This item: Bags Meets Wes by Wes Montgomery Audio CD 19.99. Only 1 left in stock - order soon. Ships from and sold by Wooden Nickel Music. Bags & Trane by John Coltrane Audio CD 11.20. Only 5 left in stock (more on the way). Ships from and sold by Amazon.com. Ain't But A Few Of Us Left by Ray Brown Audio CD 9.49.

    Get Price
  • ‎Keepnews Collection: Bags Meets Wes by Milt Jackson

    Listen to Keepnews Collection: Bags Meets Wes by Milt Jackson & Wes Montgomery on Apple Music. Stream songs including “S.K.J.”, “Stablemates (Take 4)” and more.

    Get Price
  • Bags Meets Wes! - Milt Jackson, Wes Montgomery |

    2008-3-4 · Bags Meets Wes [Keepnews Collection]. Riverside Records: 7230502. Buy download online. Wes Montgomery, Milt Jackson

    Get Price
  • Bags Meets Wes [Keepnews Collection] - Riverside

    2021-5-1 · Milt Jackson, Wes Montgomery - Bags Meets Wes! (1962) [Reissue 2004] SACD Rip | SACD ISO | DST64 2.0 > 1-bit/2.8224 MHz | 55:26 minutes | Front/Rear Covers+PDF | 951 MB or DSD64 2.0 (from SACD-ISO to Tracks.dsf) > 1-bit/2.8224 MHz | Front/Rear Covers +PDF | 1,46 GB or FLAC (carefully converted & encoded to tracks) 24bit/96 kHz | Front/Rear Covers+PDF | 1,24 GB When Wes …

    Get Price
  • Milt Jackson & Wes Montgomery - Bags Meets Wes

    One of the classic hard-bop collaborations, BAGS MEETS WES! presents guitarist Wes Montgomery and vibraphonist Milt 'Bags ' Jackson in an excellent 1961 session. Montgomery's warm, rootsy tone and ...

    Get Price
  • Milt Jackson/Wes Montgomery/Bags Meets Wes ...

    WES is family owned and operated since 1997. We offer an extensive list of repair capabilities that includes all of the major manufacturers. With our in-house repair laboratories and our highly skilled technicians, WES remains one of the leaders in the medical equipment repair industry.

    Get Price
  • WES Enterprises L.P. - Flexible and Rigid Endoscope

    Local to Auburn, we, Wes and Ky, repair I-phones and possibly other hand held devices for an affordable price! Some places are over priced for ones simple needs, but not us! Compare us to others and you'll realize we have the prices you'll love.

    Get Price
  • Release group “Bags Meets Wes!” by Milt Jackson and

    1991-4-2 · Bags Meets Wes! is an album by Milt Jackson and Wes Montgomery that was released in 1962 by Riverside. It was reissued in 1999 by the Original Jazz Classics label with additional takes and again in 2006. Continue reading at Wikipedia... Wikipedia content provided under the terms of the Creative Commons BY-SA license.

    Get Price
  • Original Jazz Sound: Bags Meets Wes! - Compilation

    Listen to Original Jazz Sound: Bags Meets Wes! on Spotify. Wes Montgomery · Compilation · 2013 · 7 songs.

    Get Price
  • Milt Jackson & Wes Montgomery - Bags Meets Wes!

    2021-4-29 · Tracklist 01. S.K.J. (Jackson) - 5:18 02. Stablemates (Golson) - 5:47 03. Stairway to the Stars (Parish-Malneck-Signorelli) - 3:40 04. Blue Roz (Montgomery) - 4:50 05. Sam Sack (Jackson) -

    Get Price
  • Milt Jackson/Wes Montgomery: Bags Meets Wes

    2002-3-1 · Milt Jackson/Wes Montgomery: Bags Meets Wes. It’s unfair to blame Wes Montgomery for the soulless work of those who claim him as an influence; his trademark octave runs became a cash cow for the smooth jazz associated with the piped-in music of doctor’s offices and grocery stores. In reality, Montgomery was a much sought-after player by ...

    Get Price
  • Bags meets Wes! - amazon.com

    MILT JACKSON & WES MONTGOMERY, Milt Jackson, Wes Montgomery, Wynton Kelly, Sam Jones, Philly Joe Jones - Bags meets Wes! - Amazon.com Music

    Get Price
  • Bags Meets Wes! by Wes Montgomery | CD | Barnes

    Bags Meets Wes! by Wes Montgomery | Read Reviews. CD 11.39 11.99 Save 5% Current price is 11.39, Original price is 11.99. You Save 5%. CD. 11.39. Vinyl LP. 22.99. View All Available Formats & Editions. Ship This Item — Qualifies for Free Shipping Buy Online, Pick up in Store

    Get Price
  • Milt Jackson & Wes Montgomery - Bags Meets Wes

    2021-5-1 · Milt Jackson, Wes Montgomery - Bags Meets Wes! (1962) [Reissue 2004] SACD Rip | SACD ISO | DST64 2.0 > 1-bit/2.8224 MHz | 55:26 minutes | Front/Rear Covers+PDF | 951 MB or DSD64 2.0 (from SACD-ISO to Tracks.dsf) > 1-bit/2.8224 MHz | Front/Rear Covers +PDF | 1,46 GB or FLAC (carefully converted & encoded to tracks) 24bit/96 kHz | Front/Rear Covers+PDF | 1,24 GB When Wes …

    Get Price
  • BAGS MEETS WES !/MILT JACKSON AND WES ...

    「Hachi Record Shop and Bar」で取り扱う商品「BAGS MEETS WES !/MILT JACKSON AND WES MONTGOMERY/ミルトとウェス二大巨人、ヴァイブとギターという珍しい共演にしてファンキーでブルージーな演奏が聞ける傑作盤。国内リイシュー盤。」の紹介・購入ページ

    Get Price
  • Bags Meets Wes : Milt Jackson Wes Montgomery ...

    Bags Meets Wes. Milt Jackson Wes Montgomery. 価格 (税込) : ¥1,694. 会員価格 (税込) : ¥1,559. まとめ買い価格 (税込) : ¥1,270. お取り寄せ. 通常ご注文後 2-7 日以内に入荷予定. 在庫表示と出荷目安 …

    Get Price
  • Best Buy: Bags Meets Wes! [Super Audio CD] [CD]

    2004-11-9 · Shop Bags Meets Wes! [Super Audio CD] [CD] at Best Buy. Find low everyday prices and buy online for delivery or in-store pick-up. Price Match Guarantee.

    Get Price
  • Bags meets Wes! - amazon.com

    MILT JACKSON & WES MONTGOMERY, Milt Jackson, Wes Montgomery, Wynton Kelly, Sam Jones, Philly Joe Jones - Bags meets Wes! - Amazon.com Music

    Get Price
  • Album Bags Meets Wes! [Keepnews Collection], Milt

    2008-1-1 · Not surprisingly, the boppers prove to be quite compatible on Bags Meets Wes, which finds them co-leading an all star-quintet that also includes pianist Wynton Kelly, bassist Sam Jones, and drummer Philly Joe Jones (who shouldn't be confused with swing drummer Jo Jones). Although Jackson and Montgomery prove what lyrical ballad players they ...

    Get Price
  • Milt Jackson & Wes Montgomery - Bags Meets Wes!

    Filename E:EACMilt Jackson and Wes Montgomery - 1961 - Bags Meets Wes! (DCC Gold)1 - S.K.J..wav Pre-gap length 0:00:02.53 Peak level 85.8 % Extraction speed 2.2 X Track quality 100.0 % Test CRC 07066D1D Copy CRC 07066D1D Accurately …

    Get Price
  • Milt Jackson & Wes Montgomery : Bags Meets Wes!

    One of the classic hard-bop collaborations, BAGS MEETS WES! presents guitarist Wes Montgomery and vibraphonist Milt 'Bags ' Jackson in an excellent 1961 session. Montgomery's warm, rootsy tone and ...

    Get Price
  • Milt Jackson/Wes Montgomery/Bags Meets Wes!

    「Hachi Record Shop and Bar」で取り扱う商品「BAGS MEETS WES !/MILT JACKSON AND WES MONTGOMERY/ミルトとウェス二大巨人、ヴァイブとギターという珍しい共演にしてファンキーでブルージーな演奏が聞ける傑作盤。国内リイシュー盤。」の紹介・購入ページ

    Get Price
  • BAGS MEETS WES !/MILT JACKSON AND WES ...

    2021-7-5 · WES 111 Sloan 10500 Seymour Ave, Franklin Park, IL 60131 Phone: 800.982.5839 • Fax: 800.447.8329 • sloan.com Downloaded 07/05/21 • • View Latest Version Page 1 of 2 OPTIONS Flush Volume 1.6/1.1 gpf (6.0/4.2 Lpf) (1.6/1.1) Finish Polished Chrome (CP) Activation Manual Valve Diaphragm Water Efficiency High Efficiency Fixture Type Water Closet

    Get Price
  • UPPERCUT® MANUAL FLUSHOMETER WES 111

    Wes Ward Auto Repair 1193 Portland St. St. Johnsbury, VT 05819 (802) 748-3636 44.421734 -71.991814 76648 036

    Get Price
  • Wes Ward Auto Repair - St. Johnsbury, VT | AAA

    Eugenio Project. WES has been aware over the years of the difficulties that both WES members and families of past members have had in finding a new home for a much loved collection of writing equipment. This has been done informally in the past and we wrote the booklet ‘Disposing of Your Collection’ back in 2013 as a guide.

    Get Price
  • Eugenio Project | WES

    Septic tanks in Staffordshire are our business. Ward Environmental Services have 32 years of knowledge and experience in the septic tank industry, from product design, manufacture, sales, installation and maintenance of all things Off-Mains: everything from off-mains drainage home buyer surveys, site surveys and soil porosity testing, to supply ...

    Get Price