News Banner

bags groove oscar peterson Institute

Just fill in the form below, click submit, you will get the price list, and we will contact you within one working day. Please also feel free to contact us via email or phone. (* is required).

  • Bag's Groove — Jazz Empowers

    Oscar Peterson. This take on Bag’s Groove was recorded live by Oscar Peterson and can be found on the Jazz Icons Series 3: Oscar Peterson Live ‘63, ‘64, ‘65. Oscar Peterson- Piano Ray Brown- …

    Get Price
  • Oscar Peterson Trio: Bag’s Groove – No Treble

    2017-12-17 · Here’s a fantastic take on “Bag’s Groove” with the Oscar Peterson Trio. After playing perfect accompanying lines to accent the melody, Brown takes an extended solo that causes the crowd to erupt in applause. Then he’s back to playing the perfect bass lines to lock in with drummer Ed Thigpen and support Peterson. YouTube. griffon jazz.

    Get Price
  • Bags' Groove (Remastered) - Oscar Peterson Trio -

    Bags' Groove (Remastered) by Oscar Peterson Trio chart history on Spotify, Apple Music, iTunes and YouTube. Week-by-week music charts, peak chart positions and airplay stats.

    Get Price
  • Chords for Oscar Peterson - Bags' Groove

    [C Gm Bb D G Am Em E F Dbm A] Chords for Oscar Peterson - Bags' Groove (transcription) + double bass with song key, BPM, capo transposer, play along with guitar, piano, ukulele & mandolin.

    Get Price
  • Milt Jackson “Bag’s Groove” — The Jazzomat Research

    1999-10-9 · In 1989, Jackson was awarded an Honorary Doctorate of Music from Berklee College of Music. His composition ' Bags' Groove ' is a jazz standard ('Bags' was a nickname given to him by a bass player in Detroit. 'Bags' referred to the bags under his eyes). He was featured on the NPR radio program Jazz Profiles.

    Get Price
  • Ray Brown w. Oscar Peterson Herb Ellis - Bags Groove

    2015-6-16 · Oscar Peterson Herb Ellis - Bags Groove (DVD). Webcam. Follow. 6 years ago | 40 views. Ray Brown w. Oscar Peterson Herb Ellis - Bags Groove (DVD). Report. Browse more videos.

    Get Price
  • Peterson Institute for International Economics

    2 天前 · View credits, reviews, tracks and shop for the 1981 Vinyl release of 'Night Train' on Discogs.

    Get Price
  • The Oscar Peterson Trio – Night Train (1981, Vinyl) -

    2021-7-8 · The Peterson Institute for International Economics is an independent nonprofit, nonpartisan research organization dedicated to strengthening prosperity and human welfare in the global economy through expert analysis and practical policy solutions. Learn More About PIIE. Address 1750 Massachusetts Avenue, NW Washington, DC 20036.

    Get Price
  • Milt Jackson “Bag’s Groove” — The Jazzomat Research

    1999-10-9 · In 1989, Jackson was awarded an Honorary Doctorate of Music from Berklee College of Music. His composition ' Bags' Groove ' is a jazz standard ('Bags' was a nickname given to him by a bass player in Detroit. 'Bags' referred to the bags under his eyes). He was featured on the NPR radio program Jazz Profiles.

    Get Price
  • Oscar Peterson – Night Train - Artist Transcriptions ...

    2015-6-16 · Oscar Peterson Herb Ellis - Bags Groove (DVD). Webcam. Follow. 6 years ago | 40 views. Ray Brown w. Oscar Peterson Herb Ellis - Bags Groove (DVD). Report. Browse more videos.

    Get Price
  • Ray Brown w. Oscar Peterson Herb Ellis - Bags Groove

    2 天前 · View credits, reviews, tracks and shop for the 1981 Vinyl release of 'Night Train' on Discogs.

    Get Price
  • The Oscar Peterson Trio – Night Train (1981, Vinyl) -

    2021-6-23 · Version with '7165 Sunset Boulevard, Hollywood, Calif. 90046' addresse at the bottom of the labels. Approximately 1972 or a bit later. Predecessor version to the Polydor Incorporated release from the late 1970s. Similar to Night Train, but different typo on labels and without 'STEREO', but plays stereo. V6/8538 on the front cover.

    Get Price
  • Bag's Groove Sheet music for Piano (Solo) |

    2015-4-27 · Oscar Peterson Trio - Night Train[24,96]flac ├Paquito D'Rivera拉丁 ├1996.Portraits Of Cuba[24,96]flac ├Patricia Barber蓝调+女声 ├2004.Live A Fortnight In France[24,96]flac ├Phoebe Snow 蓝调+灵歌 ├1989.It Looks Like Snow[24

    Get Price
  • Bag's Groove - Ray Brown | Shazam

    2021-7-7 · Institute for Network Sciences and Cyberspace 首页 院系简介 机构设置 师资队伍 党建专栏 科学研究 教务教学 试验平台 学术交流 招生信息 招聘信息 学生活动 新闻动态 网络体系结构研究室 网络和系 …

    Get Price
  • Night Train - Oscar Peterson Trio : Free Download,

    2016-1-26 · Project 366 Listener Guide #16. 'Night Train - Oscar Peterson Trio'. For your listening pleasure, I chose to program the 1962-63 Verve release Night Train, which is considered one of Peterson's most commercially successful recordings. I think one of the reasons for that success was that it received very favourable air play at the time - the ...

    Get Price
  • Oscar Peterson – Omnibook - C Instruments | Hal

    Series: Omnibook Format: Softcover Artist: Oscar Peterson This is the ultimate resource for studying the work of Oscar Peterson! Nearly 40 full transcriptions of songs by this jazz piano master arranged for single-line C instruments, including: All of Me • Between the Devil and the Deep Blue Sea • Falling in Love with Love • Georgia on My Mind • I Got It Bad and That Ain't Good • If ...

    Get Price
  • Oscar Peterson Trio - Night Train (CD) - Amoeba Music

    2021-6-21 · Oscar Peterson Trio The Trio [180 Gram Vinyl] (LP) Oscar Peterson Trio View More. Label Releases. Bird In LA [Record Store Day] (LP) Charlie Parker ... Bags' Groove . Oscar Peterson 05:43: 5. Moten Swing . Oscar Peterson 02:55: 6. Easy Does It . Oscar Peterson ...

    Get Price
  • Bags' Groove (Take 2) - Miles Davis

    2021-6-23 · Oscar Peterson : Oscar Peterson Plays Count Basie (LP, Vinyl record album) - Count Basie taken down a few notches – not in quality, but in terms of the size of the group & -- Dusty Groove is Chicago's Online Record Store

    Get Price
  • Oscar Peterson : Oscar Peterson Plays Count Basie (LP ...

    2021-3-29 · Oscar Peterson - Night Train. Oscar Peterson, also known as the “King Inside of Swing”, cut some of the most acclaimed jazz recordings during his career. As a child, Peterson grew up in Montreal, Quebec as a son of immigrants from the West Indies immigrants, in the predominantly Black neighbourhood of Little Burgundy.

    Get Price
  • Oscar Peterson - Night Train | Presto Jazz

    TITLE 'Bags' Groove' PERFORMER 'The Oscar Peterson Trio' INDEX 00 03:43:40 FILE '04 - Bags' Groove.wav' WAVE INDEX 01 00:00:00 TRACK 05 AUDIO TITLE 'Moten Swing' PERFORMER 'The Oscar Peterson Trio' INDEX 00 05:38:62 FILE '05 - Moten Swing.wav' WAVE INDEX 01 00:00:00 TRACK 06 AUDIO

    Get Price
  • Oscar Peterson - Omnibook | Presto Sheet Music

    Oscar Peterson's 'Night Train' gehört wohl zu den schönsten Piano-Trio Alben des Jazz. Gemeinsam mit Ray Brown (b) und Ed Thigpen (dr) bildet der Pianist ein exzellentes Trio, das auch über lange Zeit zusammen blieb und einen sehr persönlichen Stil entwickelte: leicht swingend, sehr dynamisch und bestechend präsent.

    Get Price
  • (Jazz, Bop) Oscar Peterson, 4 Albums: At The

    2017-4-7 · Bags' Groove Kapustin: Piano Music, Vol. 2 摇摆巴赫 Piano Moods - The Very Best of Oscar Peterson Sibelius: Symphonies no.2 & 5 Celibidache.的舞台剧 · · · · · · ( 8 部看过) 看过 我和我和他和他 这一夜,Women说相声 ...

    Get Price
  • Night Train - Oscar Peterson Trio : Free Download,

    2016-1-26 · Project 366 Listener Guide #16. 'Night Train - Oscar Peterson Trio'. For your listening pleasure, I chose to program the 1962-63 Verve release Night Train, which is considered one of Peterson's most commercially successful recordings. I think one of the reasons for that success was that it received very favourable air play at the time - the ...

    Get Price
  • Oscar Peterson – Omnibook - C Instruments | Hal

    Series: Omnibook Format: Softcover Artist: Oscar Peterson This is the ultimate resource for studying the work of Oscar Peterson! Nearly 40 full transcriptions of songs by this jazz piano master arranged for single-line C instruments, including: All of Me • Between the Devil and the Deep Blue Sea • Falling in Love with Love • Georgia on My Mind • I Got It Bad and That Ain't Good • If ...

    Get Price
  • Oscar Peterson Trio - Night Train (CD) - Amoeba Music

    2021-6-21 · Oscar Peterson Trio The Trio [180 Gram Vinyl] (LP) Oscar Peterson Trio View More. Label Releases. Bird In LA [Record Store Day] (LP) Charlie Parker ... Bags' Groove . Oscar Peterson 05:43: 5. Moten Swing . Oscar Peterson 02:55: 6. Easy Does It . Oscar Peterson ...

    Get Price
  • Night Train - Oscar Peterson, Oscar Peterson Trio |

    Although the repertoire on this CD reissue by the Oscar Peterson Trio (with bassist Ray Brown and drummer Ed Thigpen) is fairly typical (with such veteran standards as 'C Jam Blues,' 'Bags' Groove,' 'Easy Does It' and 'I Got It Bad'), Peterson and his sidemen sound fairly inspired. Actually the highpoints are the final two selections: Duke Ellington's 'Band Call' and the original version of O ...

    Get Price
  • Oscar Peterson – Omnibook - Piano Transcriptions |

    Series: Omnibook Format: Softcover Artist: Oscar Peterson This is the ultimate resource for studying the work of Oscar Peterson! Nearly 40 full piano transcriptions for the jazz piano master, including: All of Me • Between the Devil and the Deep Blue Sea • Falling in Love with Love • Georgia on My Mind • I Got It Bad and That Ain't Good • If I Were a Bell • In the Wee Small Hours ...

    Get Price
  • Oscar Peterson – Omnibook - C Instruments | Hal

    Series: Omnibook Format: Softcover Artist: Oscar Peterson This is the ultimate resource for studying the work of Oscar Peterson! Nearly 40 full transcriptions of songs by this jazz piano master arranged for single-line C instruments, including: All of Me • Between the Devil and the Deep Blue Sea • Falling in Love with Love • Georgia on My Mind • I Got It Bad and That Ain't Good • If ...

    Get Price
  • Bags' Groove (Take 2) - Miles Davis

    Item Number: HL.264094. ISBN 9781540021496. 9x12 inches. 11 note-for-note transcriptions right off the iconic 1962 piano album by Peterson. Includes: Bags' Groove • Band Call • C-Jam Blues • Easy Does It • Georgia on My Mind • The Honeydripper • Hymn to Freedom • I Got It Bad and That Ain't Good • Moten Swing • Night Train • Things Ain't What They Used to Be.

    Get Price
  • Oscar Peterson - Night Train By Oscar Peterson -

    TITLE 'Bags' Groove' PERFORMER 'The Oscar Peterson Trio' INDEX 00 03:43:40 FILE '04 - Bags' Groove.wav' WAVE INDEX 01 00:00:00 TRACK 05 AUDIO TITLE 'Moten Swing' PERFORMER 'The Oscar Peterson Trio' INDEX 00 05:38:62 FILE '05 - Moten Swing.wav' WAVE INDEX 01 00:00:00 TRACK 06 AUDIO

    Get Price
  • To Bags with Love: Milt Jackson Memorial Album CD

    miles davis bags' groove 1.350 денар0 miles davis jazz at the plaza 1.300 денари miles davis at carnegie hall 1.300 денари miles davis 1958 miles 1.300 денари ...

    Get Price
  • (Jazz, Bop) Oscar Peterson, 4 Albums: At The

    2021-7-1 · 研究院简介. 复旦大学国际问题研究院于2000年底在原有的美国研究中心、日本研究中心、韩国研究中心等研究机构的基础上成立。. 2013年起,为加强复旦大学的国际问题研究、更好地服务于国家外交...

    Get Price